Торрент-трекер
» » Хоббит: Трилогия (2012-2014) hd 720p
Нажмите здесь для восстановления доступа к оригинальному rutor.org и другим заблокированным сайтам! RUTOR.ORG скоро будет заблокирован в России, читайте информация по блокировкам

Хоббит: Трилогия (2012-2014) hd 720p торрент

Хоббит: Трилогия (2012-2014) hd 720p


Данный релиз создан на основе 16-го обновления и закодирован по технологии HEVC.[/spoiler]

Год выпуска: 2012
Страна: США, Новая Зеландия
Жанр: фэнтези, приключения
Продолжительность: 03:02:31
Перевод: Дубляж, Оригинал
Субтитры: Русские (Форс v1, Форс v2, полные), Украинские (Форс, полны), Английские (форс, полные, SHD)

Режиссер: Питер Джексон
фэнтези, приключения
Продолжительность: 3:06:34
Перевод: Дубляж, Оригинал
Субтитры: Русские (Форс, полные), Украинские (Форс, полные), Английские (полные, SDH, SDH-Colored)

Режиссер: Питер Джексон
фэнтези, приключения
Продолжительность: 02:44:02
Перевод: Дубляж, Оригинал
Субтитры: Русские (Форс, полные), Украинские (Форс, полные), Английские (полные, SDH)

Режиссер: Питер Джексон

В ролях: Мартин Фриман, Иэн МакКеллен, Ричард Армитедж, Джеймс Несбитт, Кен Стотт, Грэм МакТавиш, Уильям Кирчер, Стивен Хантер, Дин О'Горман, Эйдан Тернер

Описание: Когда отряд из тринадцати гномов нанимал хоббита Бильбо Бэгинса в качестве взломщика и четырнадцатого, «счастливого», участника похода к Одинокой горе, Бильбо полагал, что его приключения закончатся, когда он выполнит свою задачу — найдет сокровище, которое так необходимо предводителю гномов Торину. Путешествие в Эребор, захваченное драконом Смаугом королевство гномов, оказалось еще более опасным, чем предполагали гномы и даже Гэндальф — мудрый волшебник, протянувший Торину и его отряду руку помощи.
В погоню за гномами устремилась армия орков, ведомых пробудившимся в руинах древним злом, а эльфы и люди, с которыми Бильбо и его товарищам пришлось иметь дело во время путешествия и которые пострадали от последствий желания гномов вернуть свой дом, предъявили права на щедрое вознаграждение — часть сокровищ Одинокой горы. Скоро неподалеку от Одинокой горы встретятся пять армий, и лишь кровопролитная битва определит результаты смелого гномьего похода.

Качество: BDRip 720p / 60 FPS by Tiberiumsun69
Формат: MKV
Видео кодек: H.265
Аудио кодек: AC3
Видео: HEVC, 1280x536 (2.40:1), 3000 kbps, 59.940 fps, 0.073 bpp
Аудио#1: AC3 / 5.1 / 48 kHz / 448 kbps / 16 bit | Русский дубляж
Аудио#2: AC3 / 5.1 / 48 kHz / 448 kbps / 16 bit | Украинский дубляж
Аудио#3: AC3 / 5.1 / 48 kHz / 640 kbps / 16 bit | Оригинал


[/spoiler]

[spoiler=Log x265]
Encoding video to: F:Temp029.265
x265 10-bit depth 3000kbps 1280x536 59.940fps (589936 frames)

avs4x26x.exe: -L x265_10b.exe 'F:Temp029.avs' --bitrate 3000 --preset medium --profile main10 --level-idc 4.0 --sar 1:1 --output 'F:Temp029.265'

yuv [info]: 1280x536 fps 60000/1001 i420p8 sar 1:1 unknown frame count
raw [info]: output file: F:Temp029.265
x265 [info]: HEVC encoder version 2.6+37-1949157705ce
x265 [info]: build info [Windows][MSVC 1912][64 bit] 10bit
x265 [info]: using cpu capabilities: MMX2 SSE2Fast LZCNT SSSE3 SSE4.2 AVX FMA3 BMI2 AVX2
x265 [info]: Main 10 profile, Level-4 (Main tier)
x265 [info]: Thread pool created using 8 threads
x265 [info]: Slices : 1
x265 [info]: frame threads / pool features : 3 / wpp(9 rows)
x265 [warning]: Source height < 720p; disabling lookahead-slices
x265 [info]: Coding QT: max CU size, min CU size : 64 / 8
x265 [info]: Residual QT: max TU size, max depth : 32 / 1 inter / 1 intra
x265 [info]: ME / range / subpel / merge : hex / 57 / 2 / 2
x265 [info]: Keyframe min / max / scenecut / bias: 25 / 250 / 40 / 5.00
x265 [info]: Lookahead / bframes / badapt : 20 / 4 / 2
x265 [info]: b-pyramid / weightp / weightb : 1 / 1 / 0
x265 [info]: References / ref-limit cu / depth : 3 / on / on
x265 [info]: AQ: mode / str / qg-size / cu-tree : 1 / 1.0 / 32 / 1
x265 [info]: Rate Control / qCompress : ABR-3000 kbps / 0.60
x265 [info]: tools: rd=3 psy-rd=2.00 rskip signhide tmvp strong-intra-smoothing
x265 [info]: tools: deblock sao

x265 [info]: frame I: 3364, Avg QP:20.16 kb/s: 25940.73
x265 [info]: frame P: 148786, Avg QP:20.21 kb/s: 8514.34
x265 [info]: frame B: 437786, Avg QP:26.72 kb/s: 939.08
x265 [info]: Weighted P-Frames: Y:6.3% UV:3.4%
x265 [info]: consecutive B-frames: 3.5% 2.4% 5.0% 81.1% 8.0%

encoded 589936 frames in 25076.73s (23.53 fps), 2992.18 kb/s, Avg QP:25.04

avs [info]: AviSynth 2.60, build:Feb 20 2015 [03:16:45]
avs [info]: Video colorspace: YV12
avs [info]: Video resolution: 1280x536
avs [info]: Video framerate: 60000/1001
avs [info]: Video framecount: 589936
avs4x26x [info]: 'x265_10b.exe' - --bitrate 3000 --preset medium --profile main10 --level-idc 4.0 --sar 1:1 --output F:Temp029.265 --frames 589936 --fps 60000/1001 --input-res 1280x536 --input-csp i420 [/spoiler]

[spoiler=MediaInfo]General
Unique ID : 233406509041503828604297267465283507241 (0xAF9875601C7EEDE93F4D99E003F11429)
Complete name : F:ТоррентыХоббит BDRip-HEVC 720p 60fps3. Битва пяти воинств.mkv
Format : Matroska
Format version : Version 4 / Version 2
File size : 5.20 GiB
Duration : 2 h 44 min
Overall bit rate : 4 534 kb/s
Movie name : The Hobbit: The Battle of the Five Armies (2014) Extended Cut by Tiberiumsun69
Encoded date : UTC 2018-02-10 15:50:07
Writing application : mkvmerge v20.0.0 ('I Am The Sun') 64-bit
Writing library : libebml v1.3.5 + libmatroska v1.4.8

Video
ID : 1
Format : HEVC
Format/Info : High Efficiency Video Coding
Format profile : Main 10@L4@Main
Codec ID : V_MPEGH/ISO/HEVC
Duration : 2 h 44 min
Bit rate : 2 994 kb/s
Width : 1 280 pixels
Height : 536 pixels
Display aspect ratio : 2.40:1
Frame rate mode : Constant
Frame rate : 59.940 (59940/1000) FPS
Original frame rate : 59.940 (60000/1001) FPS
Color space : YUV
Chroma subsampling : 4:2:0
Bit depth : 10 bits
Bits/(Pixel*Frame) : 0.073
Stream size : 3.43 GiB (66%)
Default : Yes
Forced : No

Audio #1
ID : 2
Format : AC-3
Format/Info : Audio Coding 3
Codec ID : A_AC3
Duration : 2 h 44 min
Bit rate mode : Constant
Bit rate : 448 kb/s
Channel(s) : 6 channels
Channel positions : Front: L C R, Side: L R, LFE
Sampling rate : 48.0 kHz
Frame rate : 31.250 FPS (1536 SPF)
Bit depth : 16 bits
Compression mode : Lossy
Stream size : 526 MiB (10%)
Title : Dub | DD 5.1 @ 448 kbps - Blu-Ray CEE + Yu.Serbin
Language : Russian
Service kind : Complete Main
Default : Yes
Forced : No

Audio #2
ID : 3
Format : AC-3
Format/Info : Audio Coding 3
Codec ID : A_AC3
Duration : 2 h 44 min
Bit rate mode : Constant
Bit rate : 448 kb/s
Channel(s) : 6 channels
Channel positions : Front: L C R, Side: L R, LFE
Sampling rate : 48.0 kHz
Frame rate : 31.250 FPS (1536 SPF)
Bit depth : 16 bits
Compression mode : Lossy
Stream size : 526 MiB (10%)
Title : Dub | DD 5.1 @ 448 kbps - Blu-Ray CEE
Language : Ukrainian
Service kind : Complete Main
Default : No
Forced : No

Audio #3
ID : 4
Format : AC-3
Format/Info : Audio Coding 3
Codec ID : A_AC3
Duration : 2 h 44 min
Bit rate mode : Constant
Bit rate : 640 kb/s
Channel(s) : 6 channels
Channel positions : Front: L C R, Side: L R, LFE
Sampling rate : 48.0 kHz
Frame rate : 31.250 FPS (1536 SPF)
Bit depth : 16 bits
Compression mode : Lossy
Stream size : 751 MiB (14%)
Title : Original | DD 5.1 @ 640 kbps
Language : English
Service kind : Complete Main
Default : No
Forced : No

Text #1
ID : 5
Format : UTF-8
Codec ID : S_TEXT/UTF8
Codec ID/Info : UTF-8 Plain Text
Duration : 2 h 28 min
Bit rate : 3 b/s
Count of elements : 98
Stream size : 3.47 KiB (0%)
Title : Forced
Language : Russian
Default : Yes
Forced : No

Text #2
ID : 6
Format : UTF-8
Codec ID : S_TEXT/UTF8
Codec ID/Info : UTF-8 Plain Text
Duration : 2 h 42 min
Bit rate : 39 b/s
Count of elements : 1534
Stream size : 46.7 KiB (0%)
Title : iTunes
Language : Russian
Default : No
Forced : No

Text #3
ID : 7
Format : UTF-8
Codec ID : S_TEXT/UTF8
Codec ID/Info : UTF-8 Plain Text
Duration : 2 h 28 min
Bit rate : 3 b/s
Count of elements : 99
Stream size : 3.43 KiB (0%)
Title : Forced
Language : Ukrainian
Default : No
Forced : No

Text #4
ID : 8
Format : UTF-8
Codec ID : S_TEXT/UTF8
Codec ID/Info : UTF-8 Plain Text
Duration : 2 h 42 min
Bit rate : 39 b/s
Count of elements : 1536
Stream size : 47.1 KiB (0%)
Title : iTunes
Language : Ukrainian
Default : No
Forced : No

Text #5
ID : 9
Format : UTF-8
Codec ID : S_TEXT/UTF8
Codec ID/Info : UTF-8 Plain Text
Duration : 2 h 29 min
Bit rate : 29 b/s
Count of elements : 1462
Stream size : 32.8 KiB (0%)
Title : Full
Language : English
Default : No
Forced : No

Text #6
ID : 10
Format : UTF-8
Codec ID : S_TEXT/UTF8
Codec ID/Info : UTF-8 Plain Text
Duration : 2 h 29 min
Bit rate : 34 b/s
Count of elements : 1712
Stream size : 38.3 KiB (0%)
Title : SDH
Language : English
Default : No
Forced : No

Menu
00:00:00.000 : en:Fire and Water
00:05:12.061 : en:Bard the Dragon-Slayer
00:12:47.016 : en:Dungeons of the Dark Lord
00:13:18.964 : en:Shores of the Long Lake
00:18:57.219 : en:Not at Home
00:23:42.003 : en:Others will Now Look to the Mountain
00:24:56.119 : en:Legions of the Defiler
00:26:04.354 : en:The Mark of Gundabad
00:27:32.984 : en:Attack on Dol Guldur
00:35:45.351 : en:Summon Our Friends
00:36:41.073 : en:The King's Jewel
00:40:41.898 : en:The Ruins of Dale
00:42:01.144 : en:Erebor Fortified
00:43:11.756 : en:The Elvenking's Aid
00:46:16.148 : en:The Gathering of the Clouds
00:51:27.668 : en:A Token of Friendship
00:54:57.961 : en:The Shadow of Gundabad
00:56:14.830 : en:The Last Move in a Master Plan
00:58:31.299 : en:Bolg of the North
01:00:26.957 : en:The Night Watch
01:02:43.593 : en:A Thief in the Night
01:06:10.175 : en:An Honest Burglar
01:12:23.297 : en:Dain Ironfoot
01:17:22.555 : en:The Clouds Burst
01:20:36.331 : en:The Battle at Dale
01:24:57.217 : en:The Darkest Hour
01:28:41.775 : en:Dragon-Sickness
01:30:52.280 : en:The Return of Thorin Oakenshild
01:33:02.159 : en:Sons of Durin
01:35:12.832 : en:'To the King!'
01:38:32.489 : en:A Call to Arms
01:39:42.893 : en:Thorin's Plan
01:41:00.596 : en:The War Chariot
01:45:03.505 : en:Courage and Cowardice
01:47:13.635 : en:The Fifth Army
01:49:05.288 : en:Scouting Ravenhill
01:50:03.013 : en:Blood of the Eldar
01:52:59.606 : en:An Unforeseen Remedy
01:53:51.282 : en:The Fallen
01:57:15.236 : en:The Battle at Ravenhill
02:05:38.572 : en:To the Death
02:12:07.044 : en:Parting in Friendship
02:20:07.440 : en:King under the Mountain
02:22:27.205 : en:The Return Journey
02:26:11.596 : en:The Last Stage
02:30:54.462 : en:Credits[/spoiler]

[/spoiler]

Оценка
Качают 137
Раздают 162
Добавлен 11-02-2018, 17:45
Размер 17.33 GB
Связанные раздачи
Добавлен Название Размер Пиры
20-02-2018 D На колёсах (2017) HD 1080p 3.09 GB S65 L7
20-02-2018 D Места силы [1 сезон] (2016) hd 720p 11.07 GB S30 L17
20-02-2018 D Команда Б [1-9 серия] (2017) 2.76 GB S72 L67
20-02-2018 D Кольцо с рубином [1-34 серия] (2017) (Добавили 34 серию) 7.84 GB S14 L27
20-02-2018 D Стоматолог [1 сезон 1-9 серия] (2018) (Добавили 9 серию) 4.10 GB S15 L27
20-02-2018 D Курица [1-2 серия] (2017) 1.17 GB S141 L38
20-02-2018 D Старики (2015) HD 1080p 6.25 GB SL8
20-02-2018 D The Sexy Brutale (2017) PC (Обновили версию v1.0) 1.21 GB S84 L17
20-02-2018 D Индевор / Молодой Морс [5 сезон 1-3 серия] (2018) 2.93 GB S17 L26
20-02-2018 D Все только начинается (2017) hd 720p 4.62 GB S67 L31


Добавить комментарий
up

Для жалоб на нарушения авторских прав пишите на email abuse@rutorg2.ru с темой "abuse" | Обратная связь